[更早] [欧美] [动作] [WEB-1080P] 末日惊魂 Power.Play.2003.1080p.AMZN.WEBRip.DDP2.0.x264-TOMMY 9.45GB

uump4 11天前 44

帖子完整标题:末日惊魂 Power.Play.2003.1080p.AMZN.WEBRip.DDP2.0.x264-TOMMY 9.45GB


悠悠MP4_MP4电影下载_末日惊魂 Power.Play.2003.1080p.AMZN.WEBRip.DDP2.0.x264-TOMMY 9.45GB

◎译  名 末日惊魂
◎片  名 Power Play
◎年  代 2002
◎产  地 美国
◎类  别 动作 / 惊悚
◎语  言 英语
◎上映日期 2003-04-25
◎IMDb评分  3.7/10 from 460 users
◎IMDb链接  http://www.imdb.com/title/tt0295529
◎豆瓣评分 0/10 from 0 users
◎豆瓣链接 https://movie.douban.com/subject/3081500/
◎导  演 Joseph Zito
◎主  演 Dylan Walsh
       Alison Eastwood
       Tobin Bell


◎标  签 科幻 | 美国电影 | 美国 | 末日惊魂 | BesTV

◎简  介  

  A major energy conglomerate is experimenting with new power sources and in the process is triggering major earthquakes in the L.A area when excess heat causes new fault lines. An investigative journalist is hot on the trail ,as are some ecological warriors and the company strikes back with assassins and bombs. Fortunately for the good guys the killers are stupendously bad shots mowing down innocent bystanders in plenty but proving wholly unable to hit the real target . Its pretty poor with a cast consisting entirely of somnambulists ;some weak special effects and a plot for whom illogical would be too good a word
  Avoid !

Video
ID                                       : 1
Format                                   : AVC
Format/Info                              : Advanced Video Codec
Format profile                           : [email protected]
Format settings                          : CABAC / 4 Ref Frames
Format settings, CABAC                   : Yes
Format settings, Reference frames        : 4 frames
Codec ID                                 : V_MPEG4/ISO/AVC
Duration                                 : 1 h 40 min
Bit rate                                 : 13.3 Mb/s
Width                                    : 1 920 pixels
Height                                   : 1 080 pixels
Display aspect ratio                     : 16:9
Frame rate mode                          : Constant
Frame rate                               : 29.970 (30000/1001) FPS
Color space                              : YUV
Chroma subsampling                       : 4:2:0
Bit depth                                : 8 bits
Scan type                                : Progressive
Bits/(Pixel*Frame)                       : 0.213
Stream size                              : 9.29 GiB (98%)
Default                                  : Yes
Forced                                   : No
Color range                              : Limited
Color primaries                          : BT.709
Transfer characteristics                 : BT.709
Matrix coefficients                      : BT.709

Audio
ID                                       : 2
Format                                   : E-AC-3
Format/Info                              : Enhanced AC-3
Commercial name                          : Dolby Digital Plus
Codec ID                                 : A_EAC3
Duration                                 : 1 h 40 min
Bit rate mode                            : Constant
Bit rate                                 : 224 kb/s
Channel(s)                               : 2 channels
Channel layout                           : L R
Sampling rate                            : 48.0 kHz
Frame rate                               : 31.250 FPS (1536 SPF)
Compression mode                         : Lossy
Stream size                              : 161 MiB (2%)
Title                                    : English
Language                                 : English
Service kind                             : Complete Main
Default                                  : Yes
Forced                                   : No

Text
ID                                       : 3
Format                                   : UTF-8
Codec ID                                 : S_TEXT/UTF8
Codec ID/Info                            : UTF-8 Plain Text
Duration                                 : 1 h 39 min
Bit rate                                 : 42 b/s
Count of elements                        : 1371
Stream size                              : 31.1 KiB (0%)
Title                                    : English [SDH]
Language                                 : English
Default                                  : No
Forced                                   : No


悠悠MP4_MP4电影下载_末日惊魂 Power.Play.2003.1080p.AMZN.WEBRip.DDP2.0.x264-TOMMY 9.45GB悠悠MP4_MP4电影下载_末日惊魂 Power.Play.2003.1080p.AMZN.WEBRip.DDP2.0.x264-TOMMY 9.45GB悠悠MP4_MP4电影下载_末日惊魂 Power.Play.2003.1080p.AMZN.WEBRip.DDP2.0.x264-TOMMY 9.45GB


提示:如迅雷下载提示"任务出错"、"因版权无法下载",请尝试【迅雷5】
上传的附件:
最新回复 (0)
返回
本站所有资源均收集自互联网,没有提供影片资源存储, 也未参与录制、上传,若本站收录的资源无意侵犯了您的权益, 请联系邮箱:gogoimgs#gmail.com(#=@)