[2017] [欧美] [剧情] [纯净版] 拉布库拉达姐妹 Barracuda.2017.720p.AMZN.WEBRip.DDP2.0.x264-TEPES 3.37GB

uump4 3月前 240

帖子完整标题:拉布库拉达姐妹 Barracuda.2017.720p.AMZN.WEBRip.DDP2.0.x264-TEPES 3.37GB


悠悠MP4_MP4电影下载_拉布库拉达姐妹 Barracuda.2017.720p.AMZN.WEBRip.DDP2.0.x264-TEPES 3.37GB

◎译  名 拉布库拉达姐妹
◎片  名 La Barracuda
◎年  代 2017
◎产  地 美国
◎类  别 剧情 / 惊悚 / 音乐
◎语  言 英语
◎上映日期 2017-03-11(西南偏南电影节)
◎IMDb评分  5.5/10 from 526 users
◎IMDb链接  http://www.imdb.com/title/tt5663298
◎豆瓣评分 0/10 from 0 users
◎豆瓣链接 https://movie.douban.com/subject/27035554/
◎片  长 100分钟
◎导  演 Jason Cortlund / Julia Halperin
◎编  剧 Jason Cortlund
◎主  演 艾莉森·托尔曼 Allison Tolman
       Sophie Reid
       乔贝兹·威廉姆斯 JoBeth Williams
       Luis Bordonada
       拉里·杰克·唐森 Larry Jack Dotson
       Angelo Dylen
       Tanner Beard
       Monique Straw
       Dennis Alcorn
       Shayla Allen
       Stephanie Ballard
       Kenneth Wayne Bradley
       Ricky Catter
       Preston Corbell
       Garrett Graham


◎标  签 美国 | 惊悚 | 家庭 | 2017 | 悬疑 | 剧情 | 电影 | USA

◎简  介  

  一个名叫西纳罗亚的英国女子,一路搭顺风车来到德克萨斯中部见梅乐,她同父异母的姐姐,他们的父亲是一名去世的乡村乐音乐家。没过多久的时间,西纳罗亚就进入了梅乐的生活。她的歌声唤醒了梅乐内心的思绪,抹去了萦绕在他们之间的血缘关系问题。紧接着,家庭争分的到来,开始扰乱梅乐稳定的生活-她的工作,即将来到的婚姻,以及她和母亲本来就僵硬的关系。当这个音乐家的后代把这个陌生人带到小镇的时候,不明的动机被写进了她的歌里,宣示着她多年来,内心积攒的怒光。

Video
ID                                       : 1
Format                                   : AVC
Format/Info                              : Advanced Video Codec
Format profile                           : [email protected]
Format settings                          : CABAC / 4 Ref Frames
Format settings, CABAC                   : Yes
Format settings, Reference frames        : 4 frames
Codec ID                                 : V_MPEG4/ISO/AVC
Duration                                 : 1 h 41 min
Bit rate mode                            : Constant
Bit rate                                 : 4 533 kb/s
Nominal bit rate                         : 6 000 kb/s
Width                                    : 1 280 pixels
Height                                   : 688 pixels
Display aspect ratio                     : 1.85:1
Frame rate mode                          : Constant
Frame rate                               : 23.976 (24000/1001) FPS
Color space                              : YUV
Chroma subsampling                       : 4:2:0
Bit depth                                : 8 bits
Scan type                                : Progressive
Bits/(Pixel*Frame)                       : 0.215
Stream size                              : 3.21 GiB (95%)
Default                                  : Yes
Forced                                   : No
Color range                              : Limited
Color primaries                          : BT.709
Transfer characteristics                 : BT.709
Matrix coefficients                      : BT.709

Audio
ID                                       : 2
Format                                   : E-AC-3
Format/Info                              : Enhanced AC-3
Commercial name                          : Dolby Digital Plus
Codec ID                                 : A_EAC3
Duration                                 : 1 h 41 min
Bit rate mode                            : Constant
Bit rate                                 : 224 kb/s
Channel(s)                               : 2 channels
Channel layout                           : L R
Sampling rate                            : 48.0 kHz
Frame rate                               : 31.250 FPS (1536 SPF)
Compression mode                         : Lossy
Stream size                              : 162 MiB (5%)
Language                                 : English
Service kind                             : Complete Main
Default                                  : Yes
Forced                                   : No

Text
ID                                       : 3
Format                                   : UTF-8
Codec ID                                 : S_TEXT/UTF8
Codec ID/Info                            : UTF-8 Plain Text
Duration                                 : 1 h 38 min
Bit rate                                 : 45 b/s
Count of elements                        : 1134
Stream size                              : 33.2 KiB (0%)
Title                                    : English [CC](SDH)
Language                                 : English
Default                                  : Yes
Forced                                   : No


悠悠MP4_MP4电影下载_拉布库拉达姐妹 Barracuda.2017.720p.AMZN.WEBRip.DDP2.0.x264-TEPES 3.37GB悠悠MP4_MP4电影下载_拉布库拉达姐妹 Barracuda.2017.720p.AMZN.WEBRip.DDP2.0.x264-TEPES 3.37GB悠悠MP4_MP4电影下载_拉布库拉达姐妹 Barracuda.2017.720p.AMZN.WEBRip.DDP2.0.x264-TEPES 3.37GB


提示:如迅雷下载提示"任务出错"、"因版权无法下载",请尝试【迅雷5】
上传的附件:
最新回复 (0)
返回
本站所有资源均收集自互联网,没有提供影片资源存储, 也未参与录制、上传,若本站收录的资源无意侵犯了您的权益, 请联系邮箱:gogoimgs#gmail.com(#=@)