[2014] [欧美] [剧情] [BD-1080P] 冬日奇缘/冬天的故事 Winters.Tale.2014.1080p.BluRay.x264-SPARKS 7.94GB

uump4 1月前 25

帖子完整标题:冬日奇缘/冬天的故事 Winters.Tale.2014.1080p.BluRay.x264-SPARKS 7.94GB


悠悠MP4_MP4电影下载_冬日奇缘/冬天的故事 Winters.Tale.2014.1080p.BluRay.x264-SPARKS 7.94GB

◎译  名 冬日奇缘 / 冬天的故事 / 冬季奇迹(台) / 冬日传奇 / 冬日的故事
◎片  名 Winter's Tale
◎年  代 2014
◎产  地 美国
◎类  别 剧情 / 悬疑 / 奇幻
◎语  言 英语
◎上映日期 2014-02-14(美国)
◎IMDb评分 6.2/10 from 49092 users
◎IMDb链接 http://www.imdb.com/title/tt1837709
◎豆瓣评分 5.7/10 from 3769 users
◎豆瓣链接 https://movie.douban.com/subject/10755697/
◎片  长 118分钟
◎导  演 阿齐瓦·高斯曼 Akiva Goldsman
◎编  剧 阿齐瓦·高斯曼 Akiva Goldsman / 马克·赫尔普林 Mark Helprin
◎主  演 柯林·法瑞尔 Colin Farrell
      马修·波莫 Matt Bomer
      露西·格里菲思 Lucy Griffiths
      Michael Patrick Crane
      布莱恩·胡奇森 Brian Hutchison
      凯文·考利甘 Kevin Corrigan
      阿兰·杜伊尔 Alan Doyle
      罗素·克劳 Russell Crowe
      杰西卡·布朗-芬德利 Jessica Brown-Findlay
      Jon Patrick Walker
      David O'Brien Hart
      威廉·赫特 William Hurt
      Maurice Jones
      麦凯拉·特威格斯 Mckayla Twiggs
      Matthew R. Staley
      詹妮弗·康纳利 Jennifer Connelly
      威尔·史密斯 Will Smith


◎标  签 爱情 | 奇幻 | 美国 | 2014 | 魔幻 | 剧情 | 浪漫 | 小说改编

◎简  介

  皮特(柯林·法瑞尔 Colin Farrell 饰)是一名心地善良的男子,却在无奈之下加入了名为“短尾巴”的黑帮组织,成为了一名小偷。一场意外中,皮特得罪了黑帮大佬索穆斯(罗素·克劳 Russell Crowe 饰),引来了杀身之祸,为了保命,他不得不踏上了逃亡的旅途。
某日,皮特潜入了报业大亨艾萨克(威廉·赫特 William Hurt 饰)的豪宅之中企图行窃,没想到却遇见了艾萨克的女儿贝弗利(杰西卡·布朗·芬德利 Jessica Brown Findlay 饰), 贝弗利的温柔和美丽很快就吸引了皮特的注意,两人双双坠入了爱河。然而,灾难发生了,贝弗利因为感染了肺病不幸去世,皮特陷入了痛苦和绝望中无法自拔。一场意外中,皮特闯入了环绕城市的云墙之中,从此了无音讯,当他再度出现在人们的视野中之时,百年已经匆匆流逝。

Video
ID : 1
Format : AVC
Format/Info : Advanced Video Codec
Format profile : [email protected]
Format settings, CABAC : Yes
Format settings, ReFrames : 5 frames
Codec ID : V_MPEG4/ISO/AVC
Duration : 1h 58mn
Bit rate : 8 118 Kbps
Width : 1 920 pixels
Height : 800 pixels
Display aspect ratio : 2.40:1
Frame rate mode : Constant
Frame rate : 23.976 fps
Color space : YUV
Chroma subsampling : 4:2:0
Bit depth : 8 bits
Scan type : Progressive
Bits/(Pixel*Frame) : 0.220
Stream size : 6.54 GiB (82%)
Writing library : x264 core 142 r2431 ac76440
Encoding settings : cabac=1 / ref=5 / deblock=1:0:0 / analyse=0x3:0x133 / me=umh / subme=7 / psy=1 / psy_rd=1.00:0.00 / mixed_ref=1 / me_range=16 / chroma_me=1 / trellis=1 / 8x8dct=1 / cqm=0 / deadzone=21,11 / fast_pskip=0 / chroma_qp_offset=-2 / threads=18 / lookahead_threads=3 / sliced_threads=0 / nr=0 / decimate=1 / interlaced=0 / bluray_compat=0 / constrained_intra=0 / bframes=3 / b_pyramid=2 / b_adapt=1 / b_bias=0 / direct=1 / weightb=1 / open_gop=0 / weightp=2 / keyint=250 / keyint_min=23 / scenecut=40 / intra_refresh=0 / rc_lookahead=40 / rc=2pass / mbtree=1 / bitrate=8118 / ratetol=1.0 / qcomp=0.60 / qpmin=0 / qpmax=69 / qpstep=4 / cplxblur=20.0 / qblur=0.5 / ip_ratio=1.40 / aq=1:1.00
Language : English
Default : Yes
Forced : No

Audio
ID : 2
Format : DTS
Format/Info : Digital Theater Systems
Mode : 16
Format settings, Endianness : Big
Codec ID : A_DTS
Duration : 1h 58mn
Bit rate mode : Constant
Bit rate : 1 509 Kbps
Channel(s) : 6 channels
Channel positions : Front: L C R, Side: L R, LFE
Sampling rate : 48.0 KHz
Frame rate : 93.750 fps (512 spf)
Bit depth : 24 bits
Compression mode : Lossy
Stream size : 1.24 GiB (16%)
Language : English
Default : Yes
Forced : No

Menu
00:00:00.000 : en:00:00:00.000
00:10:45.854 : en:00:10:45.854
00:20:09.959 : en:00:20:09.959
00:30:41.048 : en:00:30:41.048
00:40:14.454 : en:00:40:14.454
00:52:37.905 : en:00:52:37.905
01:00:17.447 : en:01:00:17.447
01:09:26.996 : en:01:09:26.996
01:20:44.006 : en:01:20:44.006
01:30:54.991 : en:01:30:54.991
01:39:53.654 : en:01:39:53.654
01:50:38.507 : en:01:50:38.507

悠悠MP4_MP4电影下载_冬日奇缘/冬天的故事 Winters.Tale.2014.1080p.BluRay.x264-SPARKS 7.94GB悠悠MP4_MP4电影下载_冬日奇缘/冬天的故事 Winters.Tale.2014.1080p.BluRay.x264-SPARKS 7.94GB悠悠MP4_MP4电影下载_冬日奇缘/冬天的故事 Winters.Tale.2014.1080p.BluRay.x264-SPARKS 7.94GB悠悠MP4_MP4电影下载_冬日奇缘/冬天的故事 Winters.Tale.2014.1080p.BluRay.x264-SPARKS 7.94GB悠悠MP4_MP4电影下载_冬日奇缘/冬天的故事 Winters.Tale.2014.1080p.BluRay.x264-SPARKS 7.94GB悠悠MP4_MP4电影下载_冬日奇缘/冬天的故事 Winters.Tale.2014.1080p.BluRay.x264-SPARKS 7.94GB


提示:如迅雷下载提示"任务出错"、"因版权无法下载",请尝试【迅雷5】
上传的附件:
最新回复 (0)
返回
本站所有资源均收集自互联网,没有提供影片资源存储, 也未参与录制、上传,若本站收录的资源无意侵犯了您的权益, 请联系邮箱:gogoimgs#gmail.com(#=@)