[2006] [日本] [动作] [BD-1080P] 太妹刑事 Yo.Yo.Girl.Cop.2006.1080p.BluRay.x264-SSF 7.94GB

uump4 1月前 93

帖子完整标题:太妹刑事 Yo.Yo.Girl.Cop.2006.1080p.BluRay.x264-SSF 7.94GB


悠悠MP4_MP4电影下载_太妹刑事 Yo.Yo.Girl.Cop.2006.1080p.BluRay.x264-SSF 7.94GB

◎译  名 太妹刑事 / Yo-Yo Girl / Yo-Yo Girl Cop
◎片  名 スケバン刑事 コードネーム=麻宮サキ
◎年  代 2006
◎产  地 日本
◎类  别 动作
◎语  言 日语
◎上映日期 2006-09-30
◎IMDb评分 5.2/10 from 1067 users
◎IMDb链接 http://www.imdb.com/title/tt0781084
◎豆瓣评分 4.6/10 from 402 users
◎豆瓣链接 https://movie.douban.com/subject/1817694/
◎片  长 Japan: 98 分钟
◎导  演 深作健太
◎主  演 松浦亚弥
      石川梨华
      三好繪梨香
      岡田唯


◎标  签 日本 | 日本电影 | 松浦亚弥 | 动作 | 深作健太 | 2006 | 电影 | 青春

◎简  介

  女子高中圣泉学园表面平静,内部却万分险恶,暗潮汹涌。以秋山铃香(石川梨华 饰)为首的不良少女团伙肆意欺凌弱小,惹出学生神田琴美(三好绘里香 饰)自杀事件。警方派出探员暗中潜入圣泉学园,最终也离奇暴毙涩谷街头。个性倔强张扬的少女K(松浦亚弥 饰)和母亲(齐藤由贵 饰)一同从纽约遣返日本。为了解救被FBI逮捕的母亲,K与日本警方达成协定,同意以“麻宫早纪”的身份进入圣泉学园,追查不良少女团伙以及神秘网站的真相。早纪很快与备受欺负的今野多英(冈田唯 饰)成为好友,通过多英她渐渐了解到这所学校所发生的一切……
本片根据漫画家和田慎二的同名原著改编,系该系列第三部剧场版,松浦亚弥同时是第四代太妹刑事的扮演者。

Video
ID : 1
Format : AVC
Format/Info : Advanced Video Codec
Format profile : [email protected]
Format settings : CABAC / 4 Ref Frames
Format settings, CABAC : Yes
Format settings, ReFrames : 4 frames
Codec ID : V_MPEG4/ISO/AVC
Duration : 1 h 39 min
Bit rate : 10.9 Mb/s
Width : 1 920 pixels
Height : 896 pixels
Display aspect ratio : 2.143
Frame rate mode : Constant
Frame rate : 23.976 (24000/1001) FPS
Color space : YUV
Chroma subsampling : 4:2:0
Bit depth : 8 bits
Scan type : Progressive
Bits/(Pixel*Frame) : 0.263
Stream size : 7.34 GiB (92%)
Writing library : x264 core 94 r1583 7608d73
Encoding settings : cabac=1 / ref=4 / deblock=1:0:0 / analyse=0x3:0x133 / me=umh / subme=7 / psy=1 / psy_rd=1.00:0.15 / mixed_ref=1 / me_range=16 / chroma_me=1 / trellis=1 / 8x8dct=1 / cqm=0 / deadzone=21,11 / fast_pskip=0 / chroma_qp_offset=-3 / threads=12 / sliced_threads=0 / nr=0 / decimate=0 / interlaced=0 / constrained_intra=0 / bframes=3 / b_pyramid=2 / b_adapt=1 / b_bias=0 / direct=1 / weightb=1 / weightp=2 / keyint=250 / keyint_min=25 / scenecut=40 / intra_refresh=0 / rc_lookahead=40 / rc=2pass / mbtree=1 / bitrate=10853 / ratetol=1.0 / qcomp=0.60 / qpmin=10 / qpmax=51 / qpstep=4 / cplxblur=20.0 / qblur=0.5 / ip_ratio=1.40 / aq=2:1.00
Language : English
Default : No
Forced : No

Audio
ID : 2
Format : AC-3
Format/Info : Audio Coding 3
Commercial name : Dolby Digital
Codec ID : A_AC3
Duration : 1 h 39 min
Bit rate mode : Constant
Bit rate : 640 kb/s
Channel(s) : 6 channels
Channel layout : L R C LFE Ls Rs
Sampling rate : 48.0 kHz
Frame rate : 31.250 FPS (1536 SPF)
Bit depth : 16 bits
Compression mode : Lossy
Stream size : 454 MiB (6%)
Language : Japanese
Service kind : Complete Main
Default : Yes
Forced : No

Text
ID : 3
Format : UTF-8
Codec ID : S_TEXT/UTF8
Codec ID/Info : UTF-8 Plain Text
Language : English
Default : Yes
Forced : No

悠悠MP4_MP4电影下载_太妹刑事 Yo.Yo.Girl.Cop.2006.1080p.BluRay.x264-SSF 7.94GB悠悠MP4_MP4电影下载_太妹刑事 Yo.Yo.Girl.Cop.2006.1080p.BluRay.x264-SSF 7.94GB悠悠MP4_MP4电影下载_太妹刑事 Yo.Yo.Girl.Cop.2006.1080p.BluRay.x264-SSF 7.94GB


提示:如迅雷下载提示"任务出错"、"因版权无法下载",请尝试【迅雷5】
上传的附件:
最新回复 (0)
返回
本站所有资源均收集自互联网,没有提供影片资源存储, 也未参与录制、上传,若本站收录的资源无意侵犯了您的权益, 请联系邮箱:gogoimgs#gmail.com(#=@)