[更早] [香港] [喜剧] [BD-1080P] 龍的傳人 Legend.Of.The.Dragon.1991.1080p.BluRay.x264-aBD 6.55GB

uump4 3月前 99

帖子完整标题:龍的傳人 Legend.Of.The.Dragon.1991.1080p.BluRay.x264-aBD 6.55GB


悠悠MP4_MP4电影下载_龍的傳人 Legend.Of.The.Dragon.1991.1080p.BluRay.x264-aBD 6.55GB

◎译  名 龙的传人 / Legend of the Dragon
◎片  名 龍的傳人
◎年  代 1991
◎产  地 香港
◎类  别 喜剧
◎语  言 粤语
◎上映日期 1991-03-07(香港)
◎IMDb评分 6.4/10 from 827 users
◎IMDb链接 http://www.imdb.com/title/tt0100047
◎豆瓣评分 7.0/10 from 34817 users
◎豆瓣链接 https://movie.douban.com/subject/1306057/
◎片  长 96 分钟
◎导  演 李修贤 Danny Lee
◎编  剧 罗锦辉
◎主  演 周星驰 Stephen Chow
      梁家仁 Ka-Yan Leung
      毛舜筠 Teresa Mo
      元华 Wah Yuen
      李海生 Hoi Sang Lee
      龙方 Fong Lung
      叶子楣 Amy Yip
      元奎 Corey Yuen
      成奎安 Fui-On Shing


◎标  签 周星驰 | 喜剧 | 香港 | 香港电影 | 毛舜筠 | 搞笑 | 1990 | 电影

◎简  介

  周小龙(周星驰 饰)与父亲周飞鸿(元华 饰)生活在大澳,与师妹毛毛(毛舜筠 饰)是一对单纯的欢喜冤家。某天,小龙的师叔毛仁(梁家仁 饰)到大澳躲债,飞鸿托阿仁把儿子小龙带到香港发展,阿仁意外发现了小龙高超的台球技术,变决定利用小龙进行赌博。黑帮龙哥看中了周家大澳的田地,便要求阿仁以地皮为赌注。小龙面对对方的世界级高手,压力巨大因此输掉了比赛。毛毛为了鼓励小龙,把自家的田地也作为赌注,决定要再次把自己的土地赢回来,但压力仍然困扰着小龙,比赛一度落后……

Video
ID : 1
Format : AVC
Format/Info : Advanced Video Codec
Format profile : [email protected]
Format settings : CABAC / 4 Ref Frames
Format settings, CABAC : Yes
Format settings, ReFrames : 4 frames
Codec ID : V_MPEG4/ISO/AVC
Duration : 1 h 35 min
Bit rate : 9 175 kb/s
Width : 1 920 pixels
Height : 1 024 pixels
Display aspect ratio : 1.85:1
Frame rate mode : Constant
Frame rate : 23.976 (24000/1001) FPS
Color space : YUV
Chroma subsampling : 4:2:0
Bit depth : 8 bits
Scan type : Progressive
Bits/(Pixel*Frame) : 0.195
Stream size : 6.12 GiB (93%)
Writing library : x264 core 114 r1913 5fd3dce
Encoding settings : cabac=1 / ref=4 / deblock=1:-1:-1 / analyse=0x3:0x113 / me=umh / subme=7 / psy=1 / psy_rd=1.00:0.00 / mixed_ref=1 / me_range=16 / chroma_me=1 / trellis=1 / 8x8dct=1 / cqm=0 / deadzone=21,11 / fast_pskip=1 / chroma_qp_offset=-2 / threads=12 / sliced_threads=0 / nr=0 / decimate=1 / interlaced=0 / constrained_intra=0 / bframes=3 / b_pyramid=2 / b_adapt=2 / b_bias=0 / direct=3 / weightb=1 / open_gop=0 / weightp=2 / keyint=250 / keyint_min=23 / scenecut=40 / intra_refresh=0 / rc_lookahead=40 / rc=2pass / mbtree=1 / bitrate=9175 / ratetol=1.0 / qcomp=0.60 / qpmin=0 / qpmax=69 / qpstep=4 / cplxblur=20.0 / qblur=0.5 / vbv_maxrate=50000 / vbv_bufsize=50000 / nal_hrd=none / ip_ratio=1.40 / aq=1:1.00
Language : Chinese
Default : Yes
Forced : Yes

Audio
ID : 2
Format : AC-3
Format/Info : Audio Coding 3
Commercial name : Dolby Digital
Codec ID : A_AC3
Duration : 1 h 35 min
Bit rate mode : Constant
Bit rate : 640 kb/s
Channel(s) : 6 channels
Channel layout : L R C LFE Ls Rs
Sampling rate : 48.0 kHz
Frame rate : 31.250 FPS (1536 SPF)
Bit depth : 16 bits
Compression mode : Lossy
Stream size : 437 MiB (7%)
Language : Chinese
Service kind : Complete Main
Default : Yes
Forced : No

Text
ID : 3
Format : UTF-8
Codec ID : S_TEXT/UTF8
Codec ID/Info : UTF-8 Plain Text
Duration : 1 h 32 min
Bit rate : 52 b/s
Count of elements : 1444
Stream size : 35.2 KiB (0%)
Language : English
Default : Yes
Forced : No

悠悠MP4_MP4电影下载_龍的傳人 Legend.Of.The.Dragon.1991.1080p.BluRay.x264-aBD 6.55GB悠悠MP4_MP4电影下载_龍的傳人 Legend.Of.The.Dragon.1991.1080p.BluRay.x264-aBD 6.55GB悠悠MP4_MP4电影下载_龍的傳人 Legend.Of.The.Dragon.1991.1080p.BluRay.x264-aBD 6.55GB


提示:如迅雷下载提示"任务出错"、"因版权无法下载",请尝试【迅雷5】
上传的附件:
最新回复 (0)
返回
本站所有资源均收集自互联网,没有提供影片资源存储, 也未参与录制、上传,若本站收录的资源无意侵犯了您的权益, 请联系邮箱:gogoimgs#gmail.com(#=@)