[更早] [欧美] [剧情] [BD-720P] 真爱同心/亲亲小妈 Stepmom.1998.720p.BluRay.x264-BRMP 5.47GB

uump4 7天前 17

帖子完整标题:真爱同心/亲亲小妈 Stepmom.1998.720p.BluRay.x264-BRMP 5.47GB


悠悠MP4_MP4电影下载_真爱同心/亲亲小妈 Stepmom.1998.720p.BluRay.x264-BRMP 5.47GB

◎译  名 真爱同心 / 亲亲小妈 / 后备妈咪 / 继母
◎片  名 Stepmom
◎年  代 1998
◎产  地 美国
◎类  别 剧情 / 喜剧 / 家庭
◎语  言 英语
◎上映日期 1998-12-24
◎IMDb评分 6.8/10 from 55821 users
◎IMDb链接 http://www.imdb.com/title/tt0120686
◎豆瓣评分 7.8/10 from 3901 users
◎豆瓣链接 https://movie.douban.com/subject/1296993/
◎片  长 124 分钟
◎导  演 克里斯·哥伦布 Chris Columbus
◎编  剧 Gigi Levangie
◎主  演 朱莉娅·罗伯茨 Julia Roberts
      苏珊·萨兰登 Susan Sarandon
      艾德·哈里斯 Ed Harris
      吉娜·马隆 Jena Malone
      连姆·艾肯 Liam Aiken
      Lynn Whitfield
      Darrell Larson
      Mary Louise Wilson
      Andre B. Blake
      赫伯特·罗素 Herbert Russell
      Jack Eagle
      Lu Celania Sierra
      Lauma Zemzare
      Holly Schenck
      Michelle Stone


◎标  签 美国 | JuliaRoberts | 亲情 | 家庭 | 美国电影 | 朱莉娅·罗伯茨 | 剧情 | 1998

◎简  介

  贾姬(苏珊·萨兰登 Susan Sarandon饰)是路克(艾德·哈里斯 Ed Harris饰)的前任妻子。她为他生下一对儿女,精心操持家务,却终因性格不合而宣告婚姻失败。离婚三年来,儿女一直由贾姬和路克轮番照料,生活倒也波澜不惊,直到女摄影师伊莎贝尔(朱莉娅·罗伯茨 Julia Roberts饰)和路克堕入情网,矛盾开始繁衍激化。
伊莎贝尔搬到路克家来,一心一意要做一个合格的继母。即使她没有多少持家经验,但还是设法和孩子们快乐相处,让他们接受自己。事与愿违,在孩子的心中,谁也无法替代生母贾姬的地位。而贾姬的心情更是复杂。她已经身患癌症,当然盼望有个好继母照顾孩子。可是,妒嫉心却让她不愿看到伊莎贝尔和孩子们情如骨肉。病症一天天恶化,心理挣扎的贾姬,终于有了令人释怀的决定。

Video
ID : 1
Format : AVC
Format/Info : Advanced Video Codec
Format profile : [email protected]
Format settings : CABAC / 5 Ref Frames
Format settings, CABAC : Yes
Format settings, ReFrames : 5 frames
Codec ID : V_MPEG4/ISO/AVC
Duration : 2 h 5 min
Bit rate : 5 870 kb/s
Width : 1 280 pixels
Height : 536 pixels
Display aspect ratio : 2.40:1
Frame rate mode : Constant
Frame rate : 23.976 (24000/1001) FPS
Color space : YUV
Chroma subsampling : 4:2:0
Bit depth : 8 bits
Scan type : Progressive
Bits/(Pixel*Frame) : 0.357
Stream size : 5.13 GiB (94%)
Writing library : x264 core 157 r2969 d4099dd
Encoding settings : cabac=1 / ref=5 / deblock=1:0:0 / analyse=0x3:0x133 / me=umh / subme=7 / psy=1 / psy_rd=1.00:0.00 / mixed_ref=1 / me_range=16 / chroma_me=1 / trellis=1 / 8x8dct=1 / cqm=0 / deadzone=21,11 / fast_pskip=0 / chroma_qp_offset=-2 / threads=17 / lookahead_threads=2 / sliced_threads=0 / nr=0 / decimate=1 / interlaced=0 / bluray_compat=0 / constrained_intra=0 / bframes=3 / b_pyramid=2 / b_adapt=1 / b_bias=0 / direct=1 / weightb=1 / open_gop=0 / weightp=2 / keyint=240 / keyint_min=23 / scenecut=40 / intra_refresh=0 / rc_lookahead=40 / rc=2pass / mbtree=1 / bitrate=5870 / ratetol=1.0 / qcomp=0.60 / qpmin=10 / qpmax=51 / qpstep=4 / cplxblur=20.0 / qblur=0.5 / ip_ratio=1.40 / aq=1:1.00
Default : Yes
Forced : No

Audio
ID : 2
Format : AC-3
Format/Info : Audio Coding 3
Commercial name : Dolby Digital
Codec ID : A_AC3
Duration : 2 h 5 min
Bit rate mode : Constant
Bit rate : 384 kb/s
Channel(s) : 6 channels
Channel layout : L R C LFE Ls Rs
Sampling rate : 48.0 kHz
Frame rate : 31.250 FPS (1536 SPF)
Bit depth : 16 bits
Compression mode : Lossy
Stream size : 344 MiB (6%)
Language : English
Service kind : Complete Main
Default : Yes
Forced : No

Menu
00:00:00.000 : en:Chapter 01
00:10:32.966 : en:Chapter 02
00:23:28.657 : en:Chapter 03
00:35:17.198 : en:Chapter 04
00:49:38.976 : en:Chapter 05
01:04:27.781 : en:Chapter 06
01:17:42.908 : en:Chapter 07
01:29:36.121 : en:Chapter 08
01:38:06.798 : en:Chapter 09
01:50:28.831 : en:Chapter 10
02:00:57.459 : en:Chapter 11

悠悠MP4_MP4电影下载_真爱同心/亲亲小妈 Stepmom.1998.720p.BluRay.x264-BRMP 5.47GB


上传的附件:
最新回复 (0)
返回
本站所有资源均收集自互联网,没有提供影片资源存储, 也未参与录制、上传,若本站收录的资源无意侵犯了您的权益, 请联系邮箱:gogoimgs#gmail.com(#=@)