[2018] [其他] [剧情] [BD-Remux] 孟买酒店/失控危城 Hotel.Mumbai.2018.1080p.BluRay.REMUX.AVC.DTS-HD.MA.5.1-FGT 34.47GB

uump4 8天前 30

帖子完整标题:孟买酒店/失控危城 Hotel.Mumbai.2018.1080p.BluRay.REMUX.AVC.DTS-HD.MA.5.1-FGT 34.47GB


悠悠MP4_MP4电影下载_孟买酒店/失控危城 Hotel.Mumbai.2018.1080p.BluRay.REMUX.AVC.DTS-HD.MA.5.1-FGT 34.47GB

◎译  名 孟买酒店 / 失控危城(台)
◎片  名 Hotel Mumbai
◎年  代 2018
◎产  地 澳大利亚 / 美国 / 印度
◎类  别 剧情 / 惊悚 / 历史
◎语  言 英语 / 印地语 / 旁遮普语 / 希腊语 / 俄语 / 阿拉伯语 / 乌尔都语 / 波斯语
◎上映日期 2018-09-07(多伦多电影节) / 2018-10-10(阿德莱德电影节)
◎IMDb评分  7.8/10 from 6952 users
◎IMDb链接  http://www.imdb.com/title/tt5461944
◎豆瓣评分 8.4/10 from 1475 users
◎豆瓣链接 https://movie.douban.com/subject/26794701/
◎片  长 125分钟
◎导  演 安东尼·马拉斯 Anthony Maras
◎编  剧 安东尼·马拉斯 Anthony Maras / 约翰·科里 John Collee
◎主  演 艾米·汉莫 Armie Hammer
      纳赞宁·波妮阿蒂 Nazanin Boniadi
      戴夫·帕特尔 Dev Patel
      詹森·艾萨克 Jason Isaacs
      阿努潘·凯尔 Anupam Kher
      刘承羽 Natasha Liu Bordizzo
      安格斯·麦克拉伦 Angus McLaren
      萨钦·乔伯 Sachin Joab
      蒂尔达·格哈姆-哈维 Tilda Cobham-Hervey
      维品·沙尔马 Vipin Sharma
      阿布罗伊·辛格 Abhiroy Singh
      迪维亚·阿妮 Divya Unny
      桑迪普·博雅卡 Sandeep Bhojak
      Zenia Starr


◎标  签 印度 | 犯罪 | 剧情 | 惊悚 | 历史 | 2018 | 澳大利亚 | 电影

◎简  介  

  影片真实再现震惊世界的“印度9·11”孟买恐袭事件,2008年11月,著名的泰姬陵酒店意外遭到恐怖分子入侵,恐怖分子无差别行凶,让整个酒店陷入绝望之境,百余名酒店住客及员工被困,无人得知何时能等来救援,一场与死神的赛跑就此开启…

Video
ID                                       : 1
Format                                   : AVC
Format/Info                              : Advanced Video Codec
Format profile                           : [email protected]
Format settings                          : CABAC / 4 Ref Frames
Format settings, CABAC                   : Yes
Format settings, ReFrames                : 4 frames
Codec ID                                 : V_MPEG4/ISO/AVC
Duration                                 : 2 h 2 min
Bit rate mode                            : Variable
Bit rate                                 : 35.1 Mb/s
Maximum bit rate                         : 38.0 Mb/s
Width                                    : 1 920 pixels
Height                                   : 1 080 pixels
Display aspect ratio                     : 16:9
Frame rate mode                          : Constant
Frame rate                               : 23.976 (24000/1001) FPS
Color space                              : YUV
Chroma subsampling                       : 4:2:0
Bit depth                                : 8 bits
Scan type                                : Progressive
Bits/(Pixel*Frame)                       : 0.706
Stream size                              : 30.1 GiB (87%)
Title                                    : Hotel.Mumbai.2018.1080p.BluRay.REMUX.AVC.DTS-HD.MA.5.1-FGT
Language                                 : English
Default                                  : No
Forced                                   : No

Audio #1
ID                                       : 2
Format                                   : DTS XLL
Format/Info                              : Digital Theater Systems
Commercial name                          : DTS-HD Master Audio
Codec ID                                 : A_DTS
Duration                                 : 2 h 2 min
Bit rate mode                            : Variable
Bit rate                                 : 4 141 kb/s
Channel(s)                               : 6 channels
Channel layout                           : C L R Ls Rs LFE
Sampling rate                            : 48.0 kHz
Frame rate                               : 93.750 FPS (512 SPF)
Bit depth                                : 24 bits
Compression mode                         : Lossless
Stream size                              : 3.55 GiB (10%)
Title                                    : Hotel.Mumbai.2018.1080p.BluRay.REMUX.AVC.DTS-HD.MA.5.1-FGT
Language                                 : English
Default                                  : Yes
Forced                                   : No

Audio #2
ID                                       : 3
Format                                   : DTS XLL
Format/Info                              : Digital Theater Systems
Commercial name                          : DTS-HD Master Audio
Codec ID                                 : A_DTS
Duration                                 : 2 h 2 min
Bit rate mode                            : Variable
Bit rate                                 : 924 kb/s
Channel(s)                               : 2 channels
Channel layout                           : L R
Sampling rate                            : 48.0 kHz
Frame rate                               : 93.750 FPS (512 SPF)
Bit depth                                : 16 bits
Compression mode                         : Lossless
Stream size                              : 812 MiB (2%)
Title                                    : Hotel.Mumbai.2018.1080p.BluRay.REMUX.AVC.DTS-HD.MA.5.1-FGT
Language                                 : English
Default                                  : No
Forced                                   : No

Text
ID                                       : 4
Format                                   : PGS
Muxing mode                              : zlib
Codec ID                                 : S_HDMV/PGS
Codec ID/Info                            : Picture based subtitle format used on BDs/HD-DVDs
Duration                                 : 1 h 55 min
Bit rate                                 : 31.0 kb/s
Count of elements                        : 2248
Stream size                              : 25.5 MiB (0%)
Title                                    : English-PGS
Language                                 : English
Default                                  : Yes
Forced                                   : No

Menu
00:00:00.000                             : en:Chapter 01
00:06:39.023                             : en:Chapter 02
00:15:51.951                             : en:Chapter 03
00:24:23.378                             : en:Chapter 04
00:36:02.827                             : en:Chapter 05
00:48:46.965                             : en:Chapter 06
01:00:39.302                             : en:Chapter 07
01:15:30.442                             : en:Chapter 08
01:27:50.890                             : en:Chapter 09
01:37:14.495                             : en:Chapter 10
01:46:32.469                             : en:Chapter 11
01:55:33.259                             : en:Chapter 12


悠悠MP4_MP4电影下载_孟买酒店/失控危城 Hotel.Mumbai.2018.1080p.BluRay.REMUX.AVC.DTS-HD.MA.5.1-FGT 34.47GB悠悠MP4_MP4电影下载_孟买酒店/失控危城 Hotel.Mumbai.2018.1080p.BluRay.REMUX.AVC.DTS-HD.MA.5.1-FGT 34.47GB悠悠MP4_MP4电影下载_孟买酒店/失控危城 Hotel.Mumbai.2018.1080p.BluRay.REMUX.AVC.DTS-HD.MA.5.1-FGT 34.47GB


上传的附件:
最新回复 (0)
返回
本站所有资源均收集自互联网,没有提供影片资源存储, 也未参与录制、上传,若本站收录的资源无意侵犯了您的权益, 请联系邮箱:gogoimgs#gmail.com(#=@)