[2018] [其他] [剧情] [BD-Remux] 这个男人来自疯狂世界 The.Man.Who.Killed.Don.Quixote.2018.1080p.BluRay.REMUX.AVC.DTS-HD.MA.

uump4 8天前 20

帖子完整标题:这个男人来自疯狂世界 The.Man.Who.Killed.Don.Quixote.2018.1080p.BluRay.REMUX.AVC.DTS-HD.MA.5.1-FGT 25.06GB


悠悠MP4_MP4电影下载_这个男人来自疯狂世界 The.Man.Who.Killed.Don.Quixote.2018.1080p.BluRay.REMUX.AVC.DTS-HD.MA.

◎译  名 这个男人来自疯狂世界 / The Man Who Killed Don Quixote / 杀了唐吉诃德的男人 / 杀死堂吉诃德的人 / 谁杀了堂吉诃德 / 谁杀死了堂吉诃德
◎片  名 El hombre que mató a Don Quijote
◎年  代 2018
◎产  地 西班牙 / 比利时 / 法国 / 葡萄牙 / 英国
◎类  别 剧情 / 喜剧 / 奇幻 / 冒险
◎语  言 英语 / 西班牙语
◎上映日期 2018-05-19(戛纳电影节) / 2018-06-01(西班牙)
◎IMDb评分 6.5/10 from 8051 users
◎IMDb链接 http://www.imdb.com/title/tt1318517
◎豆瓣评分 6.9/10 from 1588 users
◎豆瓣链接 https://movie.douban.com/subject/3274508/
◎片  长 132分钟
◎导  演 特瑞·吉列姆 Terry Gilliam
◎编  剧 特瑞·吉列姆 Terry Gilliam / 托尼·格里森尼 Tony Grisoni / 塞万提斯 Miguel de Cervantes y Saavedra
◎主  演 亚当·德赖弗 Adam Driver
      欧嘉·柯瑞兰寇 Olga Kurylenko
      乔纳森·普雷斯 Jonathan Pryce
      斯特兰·斯卡斯加德 Stellan Skarsg?rd
      奥斯卡·贾恩那达 óscar Jaenada
      杰森·沃特金斯 Jason Watkins
      塞尔希·洛佩斯 Sergi López
      詹迪·莫拉 Jordi Mollà
      特瑞·吉列姆 Terry Gilliam
      霍威克·库区科利安 Hovik Keuchkerian
      阿尔维托·乔·李 Alberto Jo Lee
      威廉·米勒 William Miller
      萝西·德·帕尔马 Rossy de Palma
      布鲁诺·塞维利亚 Bruno Sevilla


◎标  签 西班牙 | 奇幻 | 2018 | 英国 | 喜剧 | 美国 | 冒险 | 剧情

◎简  介

  托比,一个愤世嫉俗的广告导演,发现自己陷入了一个古代西班牙鞋匠的荒唐幻想中,他相信自己就是堂吉诃德。在他们越来越超现实的冒险过程中,托比被迫直面他 在青年时代拍摄的一部电影的悲剧性后果——这部电影永远地改变了一个西班牙小村庄的希望和梦想。托比能补偿并找回初心吗?堂吉诃德能在他的疯狂和即将来临的死亡中幸存吗?爱情能战胜一切吗?

◎获奖情况

  第33届西班牙戈雅奖(2019)
  最佳艺术指导(提名)
  最佳制作人
  最佳服装设计(提名)
  最佳化妆与发型
  最佳原创歌曲(提名)



Video
ID : 1
Format : AVC
Format/Info : Advanced Video Codec
Format profile : [email protected]
Format settings : CABAC / 3 Ref Frames
Format settings, CABAC : Yes
Format settings, ReFrames : 3 frames
Format settings, GOP : M=3, N=12
Codec ID : V_MPEG4/ISO/AVC
Duration : 2 h 12 min
Bit rate mode : Variable
Bit rate : 23.3 Mb/s
Maximum bit rate : 35.0 Mb/s
Width : 1 920 pixels
Height : 1 080 pixels
Display aspect ratio : 16:9
Frame rate mode : Constant
Frame rate : 23.976 (24000/1001) FPS
Standard : NTSC
Color space : YUV
Chroma subsampling : 4:2:0
Bit depth : 8 bits
Scan type : Progressive
Bits/(Pixel*Frame) : 0.469
Stream size : 21.6 GiB (86%)
Title : The.Man.Who.Killed.Don.Quixote.2018.1080p.BluRay.REMUX.AVC.DTS-HD.MA.5.1-FGT
Language : English
Default : No
Forced : No
Color range : Limited
Color primaries : BT.709
Transfer characteristics : BT.709
Matrix coefficients : BT.709

Audio
ID : 2
Format : DTS XLL
Format/Info : Digital Theater Systems
Commercial name : DTS-HD Master Audio
Codec ID : A_DTS
Duration : 2 h 12 min
Bit rate mode : Variable
Bit rate : 3 638 kb/s
Channel(s) : 6 channels
Channel layout : C L R Ls Rs LFE
Sampling rate : 48.0 kHz
Frame rate : 93.750 FPS (512 SPF)
Bit depth : 24 bits
Compression mode : Lossless
Stream size : 3.38 GiB (13%)
Title : The.Man.Who.Killed.Don.Quixote.2018.1080p.BluRay.REMUX.AVC.DTS-HD.MA.5.1-FGT
Language : English
Default : Yes
Forced : No

Text #1
ID : 3
Format : PGS
Muxing mode : zlib
Codec ID : S_HDMV/PGS
Codec ID/Info : Picture based subtitle format used on BDs/HD-DVDs
Duration : 2 h 5 min
Bit rate : 57.3 kb/s
Count of elements : 3566
Stream size : 51.6 MiB (0%)
Title : English-PGS
Language : English
Default : Yes
Forced : No

Text #2
ID : 4
Format : PGS
Muxing mode : zlib
Codec ID : S_HDMV/PGS
Codec ID/Info : Picture based subtitle format used on BDs/HD-DVDs
Duration : 2 h 7 min
Bit rate : 64.4 kb/s
Count of elements : 4668
Stream size : 58.8 MiB (0%)
Title : English-SDH-PGS
Language : English
Default : No
Forced : No

Menu
00:00:00.000 : en:Chapter 01
00:11:29.271 : en:Chapter 02
00:23:22.776 : en:Chapter 03
00:32:00.835 : en:Chapter 04
00:40:59.665 : en:Chapter 05
00:55:08.263 : en:Chapter 06
01:06:43.791 : en:Chapter 07
01:17:12.252 : en:Chapter 08
01:26:07.787 : en:Chapter 09
01:39:55.864 : en:Chapter 10
01:52:38.543 : en:Chapter 11
02:06:48.100 : en:Chapter 12

悠悠MP4_MP4电影下载_这个男人来自疯狂世界 The.Man.Who.Killed.Don.Quixote.2018.1080p.BluRay.REMUX.AVC.DTS-HD.MA.悠悠MP4_MP4电影下载_这个男人来自疯狂世界 The.Man.Who.Killed.Don.Quixote.2018.1080p.BluRay.REMUX.AVC.DTS-HD.MA.悠悠MP4_MP4电影下载_这个男人来自疯狂世界 The.Man.Who.Killed.Don.Quixote.2018.1080p.BluRay.REMUX.AVC.DTS-HD.MA.


上传的附件:
最新回复 (0)
返回
本站所有资源均收集自互联网,没有提供影片资源存储, 也未参与录制、上传,若本站收录的资源无意侵犯了您的权益, 请联系邮箱:gogoimgs#gmail.com(#=@)