不速之客 The.Guest.2014.LIMITED.1080p.BluRay.x264-GECKOS 7.65GB

uump4 1月前 30

帖子完整标题:不速之客 The.Guest.2014.LIMITED.1080p.BluRay.x264-GECKOS 7.65GB


悠悠MP4_MP4电影下载_不速之客 The.Guest.2014.LIMITED.1080p.BluRay.x264-GECKOS 7.65GB

◎译  名 不速之客
◎片  名 The Guest
◎年  代 2014
◎产  地 美国
◎类  别 动作 / 悬疑 / 惊悚
◎语  言 英语
◎上映日期 2014-09-17(美国)
◎IMDb评分 6.7/10 from 82095 users
◎IMDb链接 http://www.imdb.com/title/tt2980592
◎豆瓣评分 6.3/10 from 8491 users
◎豆瓣链接 https://movie.douban.com/subject/25721544/
◎片  长 99分钟
◎导  演 亚当·温加德 Adam Wingard
◎编  剧 西蒙·巴雷特 Simon Barrett
◎主  演 丹·史蒂文斯 Dan Stevens
      Maika Monroe
      布雷丹·梅耶尔 Brendan Meyer
      谢拉·柯雷 Sheila Kelley
      勒兰德·奥瑟 Leland Orser
      兰斯·莱迪克 Lance Reddick
      Tabatha Shaun
      蔡斯·威廉逊 Chase Williamson
      乔·大卫·摩尔 Joel David Moore
      Stephen Brown
      Brenden Wedner
      Alex Knight
      伊桑·恩布里 Ethan Embry
      Nancy Jeris
      马修·佩奇 Matthew Page


◎标  签 美国 | 惊悚 | 犯罪 | 动作 | 悬疑 | DanStevens | 2014 | 丹·史蒂文斯

◎简  介

  一位退役归来的士兵与刚在战场上痛失长子的一家人结为朋友,相通的经历让他们的感情维系日益增强,士兵成为了这家人的贵客。然而这家人很快发现,士兵的真实身份并不像他所说的那样……via.张咏轩

◎获奖情况

  第30届美国独立精神奖(2015)
  最佳剪辑(提名) 亚当·温加德



Video
ID : 1
Format : AVC
Format/Info : Advanced Video Codec
Format profile : [email protected]
Format settings, CABAC : Yes
Format settings, ReFrames : 5 frames
Codec ID : V_MPEG4/ISO/AVC
Duration : 1 h 40 min
Bit rate : 9 395 kb/s
Width : 1 920 pixels
Height : 800 pixels
Display aspect ratio : 2.40:1
Frame rate mode : Constant
Frame rate : 23.976 FPS
Color space : YUV
Chroma subsampling : 4:2:0
Bit depth : 8 bits
Scan type : Progressive
Bits/(Pixel*Frame) : 0.255
Stream size : 6.44 GiB (84%)
Writing library : x264 core 142 r2479 dd79a61
Encoding settings : cabac=1 / ref=5 / deblock=1:0:0 / analyse=0x3:0x133 / me=umh / subme=7 / psy=1 / psy_rd=1.00:0.00 / mixed_ref=1 / me_range=16 / chroma_me=1 / trellis=1 / 8x8dct=1 / cqm=0 / deadzone=21,11 / fast_pskip=0 / chroma_qp_offset=-2 / threads=18 / lookahead_threads=3 / sliced_threads=0 / nr=0 / decimate=1 / interlaced=0 / bluray_compat=0 / constrained_intra=0 / bframes=3 / b_pyramid=2 / b_adapt=1 / b_bias=0 / direct=1 / weightb=1 / open_gop=0 / weightp=2 / keyint=250 / keyint_min=23 / scenecut=40 / intra_refresh=0 / rc_lookahead=40 / rc=2pass / mbtree=1 / bitrate=9395 / ratetol=1.0 / qcomp=0.60 / qpmin=0 / qpmax=69 / qpstep=4 / cplxblur=20.0 / qblur=0.5 / ip_ratio=1.40 / aq=1:1.00
Language : English
Default : Yes
Forced : No

Audio
ID : 2
Format : DTS
Format/Info : Digital Theater Systems
Mode : 16
Format settings, Endianness : Big
Codec ID : A_DTS
Duration : 1 h 40 min
Bit rate mode : Constant
Bit rate : 1 509 kb/s
Channel(s) : 6 channels
Channel positions : Front: L C R, Side: L R, LFE
Sampling rate : 48.0 kHz
Frame rate : 93.750 FPS (512 spf)
Bit depth : 24 bits
Compression mode : Lossy
Stream size : 1.06 GiB (14%)
Language : English
Default : Yes
Forced : No

Menu
00:00:00.000 : en:00:00:00.000
00:05:38.129 : en:00:05:38.129
00:09:36.159 : en:00:09:36.159
00:15:39.772 : en:00:15:39.772
00:20:37.653 : en:00:20:37.653
00:26:07.357 : en:00:26:07.357
00:31:22.422 : en:00:31:22.422
00:36:32.941 : en:00:36:32.941
00:40:39.479 : en:00:40:39.479
00:46:43.259 : en:00:46:43.259
00:49:52.531 : en:00:49:52.531
00:55:04.218 : en:00:55:04.218
01:00:38.927 : en:01:00:38.927
01:04:13.349 : en:01:04:13.349
01:09:22.742 : en:01:09:22.742
01:15:38.409 : en:01:15:38.409
01:20:08.053 : en:01:20:08.053
01:25:00.679 : en:01:25:00.679
01:30:15.201 : en:01:30:15.201
01:35:42.904 : en:01:35:42.904

悠悠MP4_MP4电影下载_不速之客 The.Guest.2014.LIMITED.1080p.BluRay.x264-GECKOS 7.65GB悠悠MP4_MP4电影下载_不速之客 The.Guest.2014.LIMITED.1080p.BluRay.x264-GECKOS 7.65GB悠悠MP4_MP4电影下载_不速之客 The.Guest.2014.LIMITED.1080p.BluRay.x264-GECKOS 7.65GB悠悠MP4_MP4电影下载_不速之客 The.Guest.2014.LIMITED.1080p.BluRay.x264-GECKOS 7.65GB悠悠MP4_MP4电影下载_不速之客 The.Guest.2014.LIMITED.1080p.BluRay.x264-GECKOS 7.65GB悠悠MP4_MP4电影下载_不速之客 The.Guest.2014.LIMITED.1080p.BluRay.x264-GECKOS 7.65GB


提示:如迅雷下载提示"任务出错"、"因版权无法下载",请尝试【迅雷5】
上传的附件:
最新回复 (0)
返回
本站所有资源均收集自互联网,没有提供影片资源存储, 也未参与录制、上传,若本站收录的资源无意侵犯了您的权益, 请联系邮箱:gogoimgs#gmail.com(#=@)