[2008] [其他] [剧情] [BD-1080P] 浪潮 The.Wave.2008.GERMAN.1080p.BluRay.x264.DTS-Narkyy 14.37GB

uump4 1月前 204

帖子完整标题:浪潮 The.Wave.2008.GERMAN.1080p.BluRay.x264.DTS-Narkyy 14.37GB


悠悠MP4_MP4电影下载_浪潮 The.Wave.2008.GERMAN.1080p.BluRay.x264.DTS-Narkyy 14.37GB

◎译  名 浪潮 / The Wave / 恶魔教室(台) / 挥手礼 / 波浪 / 白恤暴潮(港)
◎片  名 Die Welle
◎年  代 2008
◎产  地 德国
◎类  别 剧情 / 惊悚
◎语  言 德语
◎上映日期 2008-03-13(德国)
◎IMDb评分 7.6/10 from 95189 users
◎IMDb链接 http://www.imdb.com/title/tt1063669
◎豆瓣评分 8.7/10 from 168679 users
◎豆瓣链接 https://movie.douban.com/subject/2297265/
◎片  长 107 分钟
◎导  演 丹尼斯·甘塞尔 Dennis Gansel
◎编  剧 丹尼斯·甘塞尔 Dennis Gansel / 彼得·图万斯 Peter Thorwarth / 约翰尼·道金斯 Johnny Dawkins / 罗恩·比恩巴赫 Ron Birnbach / 罗恩·琼斯 Ron Jones
◎主  演 尤尔根·沃格尔 Jürgen Vogel
      弗雷德里克·劳 Frederick Lau
      马克思·雷迈特 Max Riemelt
      詹妮弗·乌尔里希 Jennifer Ulrich
      克里斯蒂安妮·保罗 Christiane Paul
      雅各布·马特施恩茨 Jacob Matschenz
      克里斯蒂娜·度·瑞格 Cristina do Rego
      埃利亚斯·穆巴里克 Elyas M'Barek
      马克西米利安·福尔马尔 Maximilian Vollmar
      马克思·马福 Max Mauff


◎标  签 德国 | 人性 | 政治 | 独裁 | 剧情 | 纪实 | 心理 | 2008

◎简  介

  赖纳?文格尔(Jürgen Vogel 饰)是德国某所高中的老师,该学校正在进行“国家体制”的主题活动周。由于他最喜欢的“无政府主义”课被另一位老师捷足先登,因此他只能主讲“独裁统治”课程。
对于自由散漫的学生们来说,任何课程都只是为了学分而上。他们在课上大声聊天,无心听讲。文格尔别出心裁提出假想“独裁”的实验。在为期一周的实验中,文格尔被置于至高无上的地位,学生们对他要绝对服从。从最初的玩乐心态,这些青年男女渐渐沉湎这个名为“浪潮”的组织中,他们体会到集体和纪律的重要性,却在不知不觉中滑向了“独裁”与“纳粹”的深渊……
本片根据真实事件改编,并荣获2008年德国电影杰出剧情片和最佳男配角奖(Frederick Lau)。

◎获奖情况

  第21届欧洲电影奖(2008)
  观众选择奖(提名)
  最佳男主角(提名) 于尔根·福格尔



Video
ID : 1
Format : AVC
Format/Info : Advanced Video Codec
Format profile : [email protected]
Format settings : CABAC / 5 Ref Frames
Format settings, CABAC : Yes
Format settings, ReFrames : 5 frames
Codec ID : V_MPEG4/ISO/AVC
Duration : 1 h 46 min
Bit rate : 17.7 Mb/s
Width : 1 916 pixels
Height : 816 pixels
Display aspect ratio : 2.35:1
Frame rate mode : Constant
Frame rate : 24.000 FPS
Color space : YUV
Chroma subsampling : 4:2:0
Bit depth : 8 bits
Scan type : Progressive
Bits/(Pixel*Frame) : 0.473
Stream size : 13.2 GiB (92%)
Writing library : x264 core 148 r2721+55 e19946b t_mod_Custom [[email protected] X86_64]
Encoding settings : cabac=1 / ref=5 / deblock=1:-3:-3 / analyse=0x3:0x133 / me=umh / subme=10 / psy=1 / fade_compensate=0.00 / psy_rd=1.05:0.00 / mixed_ref=1 / me_range=32 / chroma_me=1 / trellis=2 / 8x8dct=1 / cqm=0 / deadzone=21,11 / fast_pskip=0 / chroma_qp_offset=-2 / threads=6 / lookahead_threads=1 / sliced_threads=0 / nr=0 / decimate=0 / interlaced=0 / bluray_compat=0 / constrained_intra=0 / fgo=0 / bframes=8 / b_pyramid=2 / b_adapt=2 / b_bias=0 / direct=3 / weightb=1 / open_gop=0 / weightp=2 / keyint=240 / keyint_min=24 / scenecut=40 / intra_refresh=0 / rc_lookahead=120 / rc=crf / mbtree=0 / crf=17.0000 / qcomp=0.70 / qpmin=0:0:0 / qpmax=69:69:69 / qpstep=4 / vbv_maxrate=62500 / vbv_bufsize=78125 / crf_max=0.0 / nal_hrd=none / filler=0 / ip_ratio=1.40 / pb_ratio=1.30 / aq=3:0.65 / aq-sensitivity=10.00 / aq-factor=1.00:1.00:1.00 / aq2=0 / aq3=0
Language : German
Default : Yes
Forced : No

Audio
ID : 2
Format : DTS
Format/Info : Digital Theater Systems
Codec ID : A_DTS
Duration : 1 h 46 min
Bit rate mode : Constant
Bit rate : 1 509 kb/s
Channel(s) : 6 channels
Channel layout : C L R Ls Rs LFE
Sampling rate : 48.0 kHz
Frame rate : 93.750 FPS (512 SPF)
Bit depth : 16 bits
Compression mode : Lossy
Stream size : 1.13 GiB (8%)
Language : German
Default : Yes
Forced : No

Text
ID : 3
Format : UTF-8
Codec ID : S_TEXT/UTF8
Codec ID/Info : UTF-8 Plain Text
Duration : 1 h 38 min
Bit rate : 50 b/s
Count of elements : 1272
Stream size : 36.6 KiB (0%)
Language : English
Default : Yes
Forced : No

Menu
00:00:00.000 : en:Chapter 01
00:11:55.208 : en:Chapter 02
00:20:12.667 : en:Chapter 03
00:28:28.000 : en:Chapter 04
00:35:50.417 : en:Chapter 05
00:43:33.625 : en:Chapter 06
00:51:59.625 : en:Chapter 07
01:00:58.667 : en:Chapter 08
01:08:55.667 : en:Chapter 09
01:16:39.625 : en:Chapter 10
01:26:40.417 : en:Chapter 11
01:37:10.833 : en:Chapter 12

悠悠MP4_MP4电影下载_浪潮 The.Wave.2008.GERMAN.1080p.BluRay.x264.DTS-Narkyy 14.37GB悠悠MP4_MP4电影下载_浪潮 The.Wave.2008.GERMAN.1080p.BluRay.x264.DTS-Narkyy 14.37GB悠悠MP4_MP4电影下载_浪潮 The.Wave.2008.GERMAN.1080p.BluRay.x264.DTS-Narkyy 14.37GB


提示:如迅雷下载提示"任务出错"、"因版权无法下载",请尝试【迅雷5】
上传的附件:
最新回复 (1)
  • dyltwwl 10天前
    0 引用 2
    感谢楼主分享
返回
本站所有资源均收集自互联网,没有提供影片资源存储, 也未参与录制、上传,若本站收录的资源无意侵犯了您的权益, 请联系邮箱:gogoimgs#gmail.com(#=@)