[2014] [欧美] [剧情] [HDTV/HDrip] 篮球之心/冠军之心 1000.to.1.The.Cory.Weissman.Story.2014.1080p.HDRip.x264.AAC-KingStoner

uump4 2019-5-23 114

帖子完整标题:篮球之心/冠军之心 1000.to.1.The.Cory.Weissman.Story.2014.1080p.HDRip.x264.AAC-KingStoner 5.06GB

悠悠MP4_MP4电影下载_篮球之心/冠军之心 1000.to.1.The.Cory.Weissman.Story.2014.1080p.HDRip.x264.AAC-KingStoner
悠悠MP4_MP4电影下载_篮球之心/冠军之心 1000.to.1.The.Cory.Weissman.Story.2014.1080p.HDRip.x264.AAC-KingStoner

◎译  名 篮球之心 / 冠军之心
◎片  名 1000 to 1: The Cory Weissman Story
◎年  代 2014
◎产  地 美国
◎类  别 剧情 / 传记
◎语  言 英语
◎IMDb评分 7.1/10 from 942 users
◎IMDb链接 http://www.imdb.com/title/tt2391950
◎豆瓣评分 0/10 from 0 users
◎豆瓣链接 https://movie.douban.com/subject/26195055/
◎导  演 Michael Levine
◎编  剧 Bob Burris
◎主  演 大卫·亨瑞 David Henrie
      卢克·克莱恩坦克 Luke Kleintank
      博·布里奇斯 Beau Bridges
      Jean Louisa Kelly
      卡西·汤普森 Cassi Thomson
      汉娜·马克斯 Hannah Marks
      迈克·沃特福德 Myk Watford


◎标  签 迈克尔·莱文 | 剧情 | 美国电影 | 篮球 | 励志 | 体育 | 2014

◎简  介

  暂无相关剧情介绍

Video
ID : 1
Format : AVC
Format/Info : Advanced Video Codec
Format profile : [email protected]
Format settings, CABAC : Yes
Format settings, ReFrames : 4 frames
Codec ID : avc1
Codec ID/Info : Advanced Video Coding
Duration : 1h 34mn
Bit rate : 7 500 Kbps
Width : 1 920 pixels
Height : 1 080 pixels
Display aspect ratio : 16:9
Frame rate mode : Constant
Frame rate : 25.000 fps
Color space : YUV
Chroma subsampling : 4:2:0
Bit depth : 8 bits
Scan type : Progressive
Bits/(Pixel*Frame) : 0.145
Stream size : 4.90 GiB (97%)
Writing library : x264 core 123 r2189 35cf912
Encoding settings : cabac=1 / ref=3 / deblock=1:0:0 / analyse=0x3:0x133 / me=hex / subme=7 / psy=1 / psy_rd=1.00:0.00 / mixed_ref=1 / me_range=16 / chroma_me=1 / trellis=1 / 8x8dct=1 / cqm=0 / deadzone=21,11 / fast_pskip=1 / chroma_qp_offset=-2 / threads=6 / sliced_threads=0 / nr=0 / decimate=1 / interlaced=0 / bluray_compat=0 / constrained_intra=0 / bframes=3 / b_pyramid=2 / b_adapt=1 / b_bias=0 / direct=1 / weightb=1 / open_gop=0 / weightp=2 / keyint=250 / keyint_min=25 / scenecut=40 / intra_refresh=0 / rc_lookahead=40 / rc=abr / mbtree=1 / bitrate=7500 / ratetol=1.0 / qcomp=0.60 / qpmin=10 / qpmax=51 / qpstep=4 / ip_ratio=1.40 / aq=1:1.00

Audio
ID : 2
Format : AAC
Format/Info : Advanced Audio Codec
Format profile : LC
Codec ID : 40
Duration : 1h 34mn
Bit rate mode : Variable
Bit rate : 233 Kbps
Maximum bit rate : 384 Kbps
Channel(s) : 6 channels
Channel positions : Front: L C R, Side: L R, LFE
Sampling rate : 48.0 KHz
Compression mode : Lossy
Stream size : 157 MiB (3%)
Language : unk

悠悠MP4_MP4电影下载_篮球之心/冠军之心 1000.to.1.The.Cory.Weissman.Story.2014.1080p.HDRip.x264.AAC-KingStoner悠悠MP4_MP4电影下载_篮球之心/冠军之心 1000.to.1.The.Cory.Weissman.Story.2014.1080p.HDRip.x264.AAC-KingStoner悠悠MP4_MP4电影下载_篮球之心/冠军之心 1000.to.1.The.Cory.Weissman.Story.2014.1080p.HDRip.x264.AAC-KingStoner悠悠MP4_MP4电影下载_篮球之心/冠军之心 1000.to.1.The.Cory.Weissman.Story.2014.1080p.HDRip.x264.AAC-KingStoner悠悠MP4_MP4电影下载_篮球之心/冠军之心 1000.to.1.The.Cory.Weissman.Story.2014.1080p.HDRip.x264.AAC-KingStoner悠悠MP4_MP4电影下载_篮球之心/冠军之心 1000.to.1.The.Cory.Weissman.Story.2014.1080p.HDRip.x264.AAC-KingStoner


提示:如迅雷下载提示"任务出错"、"因版权无法下载",请尝试【迅雷5】
上传的附件:
最新回复 (0)
返回
本站所有资源均收集自互联网,没有提供影片资源存储, 也未参与录制、上传,若本站收录的资源无意侵犯了您的权益, 请联系邮箱:gogoimgs#gmail.com(#=@)